<?xml version="1.0" standalone="no"?>
<!DOCTYPE svg PUBLIC "-//W3C//DTD SVG 1.1//EN" "http://www.w3.org/Graphics/SVG/1.1/DTD/svg11.dtd" >
<svg xmlns="http://www.w3.org/2000/svg">
<metadata></metadata>
<defs>
<font id="BallparkWeiner" horiz-adv-x="572" >
<font-face units-per-em="2048" ascent="1637" descent="-411" />
<missing-glyph horiz-adv-x="464" />
<glyph horiz-adv-x="0" />
<glyph horiz-adv-x="2048" />
<glyph unicode="&#xd;" horiz-adv-x="464" />
<glyph unicode=" "  horiz-adv-x="464" />
<glyph unicode="&#x09;" horiz-adv-x="464" />
<glyph unicode="&#xa0;" horiz-adv-x="464" />
<glyph unicode="!" horiz-adv-x="468" d="M-7 125.5q0 53.5 40 112.5q61 91 153 91q37 0 76.5 -25t40 -92t-49 -139.5t-120.5 -72.5t-105.5 36t-34.5 89.5zM238 472q0 121 135.5 427.5t330.5 328.5q30 4 52 4q76 0 77 -44q0 -65 -236 -433q-165 -262 -242 -328q-50 -41 -83.5 -31.5t-33.5 76.5z" />
<glyph unicode="&#x22;" horiz-adv-x="735" d="M0 955q0 17 13 26q24 13 91 56q33 22 33.5 48t-26.5 67t-27 96t44.5 112.5t115 57.5t107.5 -35.5t37 -92.5q0 -97 -78 -203q-56 -74 -138.5 -122.5t-126.5 -48.5q-45 0 -45 39zM346 955q0 17 13 26q24 13 91 56q33 22 33 48t-27 67t-27 96t45 112.5t115.5 57.5 t107.5 -35.5t37 -92.5q0 -97 -78 -203q-56 -74 -138.5 -122.5t-127.5 -48.5t-44 39z" />
<glyph unicode="&#x26;" horiz-adv-x="1471" d="M2 286q0 242 351 478l-4 46q-19 236 145 385q136 122 294 124q93 0 145.5 -59t53.5 -121q0 -95 -96.5 -174t-234.5 -158q43 -143 119 -275.5t151 -215.5q102 117 102 214q0 41 -23 70q-43 59 -83 60l-50 -8q-56 0 -56 37q0 17 13 38q56 82 74 98q56 48 147 41 q307 -24 396 4t107.5 42.5t35.5 14.5q32 0 32 -44q0 -75 -88 -156q-97 -95 -195 -95q-46 0 -105 14.5t-116 15.5q45 -59 39 -183q-4 -85 -136 -247q134 -101 320 6q91 54 131.5 106t73.5 52t33 -28q0 -69 -340 -346q-113 -93 -234 -93t-231 82q-171 -112 -346 -111 q-426 0 -425 386zM290 425q0 -112 85.5 -209t195.5 -97q40 0 83 13q-210 255 -273 498q-91 -93 -91 -205zM615 1043.5q0 -62.5 9 -114.5q151 104 151 201q0 69 -35 74q-56 2 -90.5 -48t-34.5 -112.5z" />
<glyph unicode="'" horiz-adv-x="406" d="M0 955q0 17 13 26q24 13 91 56q33 22 33.5 48t-26.5 67t-27 96t44.5 112.5t115 57.5t107.5 -35.5t37 -92.5q0 -97 -78 -203q-56 -74 -138.5 -122.5t-126.5 -48.5q-45 0 -45 39z" />
<glyph unicode="," horiz-adv-x="362" d="M-89 -134q0 19 17.5 30t86.5 54q33 22 33 48t-27 67t-27 96t45 112.5t115.5 57.5t107.5 -35.5t37 -92.5q0 -97 -78 -203q-56 -74 -138.5 -122.5t-127.5 -48.5t-44 37z" />
<glyph unicode="-" d="M128 563q0 32 27.5 74.5t76.5 42.5h339q72 0 72 -78q0 -30 -30.5 -70t-75.5 -40h-338q-71 0 -71 71z" />
<glyph unicode="." horiz-adv-x="384" d="M2 106q0 56 39 119q54 85 143 85q63 0 95.5 -40.5t32.5 -93t-54.5 -123t-131.5 -70.5q-125 0 -124 123z" />
<glyph unicode="0" horiz-adv-x="925" d="M-4 294.5q0 188.5 134 452.5q104 206 268.5 327t316.5 121q45 0 86 -11q206 -61 206 -283q0 -158 -106 -399q-82 -184 -262.5 -346.5t-352.5 -162.5q-71 0 -132 31q-158 82 -158 270.5zM258 229q0 -115 85 -115.5t197 141t187 297.5q141 299 141 394t-56 126 q-20 13 -44 13q-127 1 -357 -423q-152 -279 -153 -433z" />
<glyph unicode="1" horiz-adv-x="406" d="M0 701q0 4 28 83q22 50 65 75q52 7 292 106q197 97 280 210q11 15 49.5 17.5t59 -13.5t20.5 -49t-36.5 -82.5t-110 -200t-125.5 -257.5t-110.5 -271t-73.5 -185q-43 -56 -127.5 -91t-141 -35.5t-56.5 46.5q0 59 108 288.5t238 441.5q-32 -19 -140.5 -70t-163.5 -51 t-55 38z" />
<glyph unicode="2" horiz-adv-x="997" d="M-76 69.5q0 30.5 85 127.5q41 46 301 225q169 117 340 347q52 72 52 157q0 128 -91 128q-65 0 -115 -50q-28 -28 -54 -116.5t-42.5 -111t-55.5 -44.5t-60 -18q-52 11 -52 78q0 19 8 37q56 147 206 266q54 43 159.5 81t201.5 38q132 0 193 -84.5t61 -170.5 q0 -130 -154 -271q-128 -121 -416 -290q7 -81 115 -121q19 -7 39 -8q61 0 167 84q30 22 61 8t15.5 -52.5t-118.5 -157.5q-130 -151 -294 -151q-110 0 -151 37q-121 106 -187 106q-26 0 -73 -46q-22 -28 -49.5 -61.5t-44 -33.5t-32 18.5t-15.5 49z" />
<glyph unicode="3" horiz-adv-x="942" d="M2 232q0 113 89 218q52 50 95.5 91.5t84.5 16.5q28 -17 -5 -51q-15 -15 -80 -68q-32 -26 -59 -84t-27 -102.5t21 -64.5q48 -48 108 -49q138 0 241 203q46 89 46.5 173t-50.5 89q-78 11 -85 54q-4 26 22 39t153 52q177 56 200 255q6 43 -25.5 66t-71.5 23t-73.5 -15 t-51 -91.5t-23.5 -83.5q-41 -58 -89 -57q-78 0 -78 65q0 82 102 178.5t322 135.5q17 4 33 3q87 0 166 -63t96 -161q24 -139 -242 -331q46 -76 46.5 -192.5t-78.5 -244t-250 -191.5q-128 -48 -234 -49q-269 0 -299 192q-4 22 -4 44z" />
<glyph unicode="4" horiz-adv-x="925" d="M-2 455q0 110 194 339.5t555 380.5q142 61 215 34l21 -8q22 0 22 -28.5t-13 -42.5q-30 -48 -109 -156q-110 -134 -197 -381q113 17 150 42t58 25q35 0 35 -34q0 -11 -31.5 -71.5t-94.5 -101.5q-24 -15 -164 -14q-20 -78 -25 -145t-12 -88q-19 -56 -106 -134 q-45 -39 -100 -39q-87 0 -87 95q0 63 23 157t47 152q-39 -6 -146.5 -28.5t-148.5 -21.5q-85 0 -86 68zM281 615q-5 -82 146 -65q54 125 134 254t80 161.5t-28 32.5q-33 0 -183 -155t-149 -228z" />
<glyph unicode="5" horiz-adv-x="908" d="M-2 250q0 97 34 155q39 71 117 71q106 0 106 -109.5t-82 -119.5q-4 -9 -4 -22q0 -58 69 -84q9 -4 18 -3q59 0 139 103t97 157q41 132 41 201.5t-35.5 90t-64 20.5t-59.5 -24q-20 -19 -41 -37q-54 -45 -86 -28t-22.5 102t84.5 223q114 209 149 235.5t79 32t92.5 -16.5 t91.5 -22q86 0 138.5 26t60.5 24q20 -7 20 -37t-16 -88q-35 -130 -210 -156q-56 -9 -195 56q-80 -50 -92 -136q162 13 232.5 -18.5t137.5 -110.5t67 -170q0 -24 -5 -46q-72 -320 -331 -473q-89 -52 -212 -52q-165 0 -249 88q-69 71 -69 168z" />
<glyph unicode="6" horiz-adv-x="853" d="M2 361q0 214 95 369q210 346 500 452q84 30 177 30t159.5 -59t59 -119t-44.5 -103.5t-99 -44.5q-96 0 -96 82q0 37 22 64t58 24q-26 35 -76 35t-155 -84q-139 -113 -191 -275q78 46 166 46.5t146 -42.5q113 -84 113 -232q0 -69 -28 -125q-191 -388 -473 -388q-41 0 -84 7 q-249 45 -249 363zM256.5 246.5q-0.5 -85.5 74.5 -97.5q54 -9 108.5 67t81 157t25.5 138q0 91 -74 99q-109 9 -162 -134.5t-53.5 -229z" />
<glyph unicode="7" horiz-adv-x="507" d="M-2 138q0 190 229 483q98 124 247 271l-32 11q-74 35 -128 39h-87q-39 0 -63 -18q-66 -86 -103.5 -73t-38 59.5t62.5 137.5q95 136 196 136q45 0 173 -43t170.5 -43t73.5 16t75 59q46 0 46.5 -54t-137.5 -171q-82 -71 -171 -205.5t-124.5 -230.5t-39 -188t-11.5 -118 q-17 -58 -111 -134t-149 -76q-26 0 -41 19q-37 50 -37 123z" />
<glyph unicode="8" horiz-adv-x="797" d="M-15 279q0 48 15 102q39 147 323 281q-48 121 -48 223q0 219 221 284q97 28 175 28q128 0 186.5 -67t58.5 -152q0 -32 -7 -60q-28 -97 -268 -212q106 -175 121 -340q9 -112 -100 -234q-134 -152 -340 -138q-336 22 -337 285zM180 316q0 -197 175 -197q123 -1 123 137 q0 71 -116 318q-98 -48 -139.5 -99.5t-42.5 -158.5zM537 946.5q0 -75.5 54 -162.5q125 76 156 138q22 43 22 85q0 80 -81 95q-13 2 -26 2q-56 0 -90.5 -41t-34.5 -116.5z" />
<glyph unicode="9" horiz-adv-x="886" d="M-2 201.5q0 69.5 38 121.5t103.5 54t96 -41.5t20.5 -69.5q-20 -58 -50 -80q-18 -12 8 -36t46 -25q117 -17 225.5 166t125.5 220q-80 -69 -189.5 -69t-182 65.5t-68.5 183.5q7 199 162.5 353.5t352.5 154.5q80 0 156 -30q188 -72 188 -353q0 -225 -118 -376 q-145 -186 -263 -282q-201 -160 -413 -160q-28 0 -56 2q-78 7 -130 69.5t-52 132zM466 684q0 -98 81 -102t126 76q20 37 55.5 170.5t35.5 156.5q0 54 -56 78q-15 7 -30 7q-93 0 -171 -208q-41 -106 -41 -178z" />
<glyph unicode=":" horiz-adv-x="362" d="M-6 121q0 56 47 130t123 74t108.5 -40.5t32.5 -93t-54.5 -123t-131.5 -70.5q-125 0 -125 123zM204 682q0 58 41 121q54 85 143 85q63 0 96 -41.5t33 -93.5t-55 -122.5t-131 -71.5q-126 0 -127 123z" />
<glyph unicode=";" horiz-adv-x="362" d="M-89 -134q0 19 17.5 30t86.5 54q33 22 33 48t-27 67t-27 96t45 112.5t115.5 57.5t107.5 -35.5t37 -92.5q0 -97 -78 -203q-56 -74 -138.5 -122.5t-127.5 -48.5t-44 37zM195 682q0 58 39 121q54 85 145 85q63 0 95 -40q73 -93 -19 -212q-59 -76 -133 -77q-126 0 -127 123z " />
<glyph unicode="?" horiz-adv-x="468" d="M-2 124.5q0 52.5 41 113.5q61 91 152 91q38 0 77.5 -24t40 -91.5t-50 -140.5t-121 -73t-105 36t-34.5 88.5zM132 952q0 93 85 180q113 117 322 117q134 0 203.5 -87.5t69.5 -169t-69.5 -155t-184 -122.5t-155 -80t-45.5 -61.5t-11.5 -69.5t-44.5 -73.5t-73 -34.5 q-67 0 -67 70q0 95 142 243t159 168q65 84 65 167q0 46 -30 71.5t-63 25.5t-69.5 -29t-36.5 -73.5t24 -70.5t24 -59.5t-39.5 -60.5t-86 -27t-83 35.5t-36.5 95.5z" />
<glyph unicode="A" horiz-adv-x="1700" d="M0 283.5q0 144.5 82 220.5q67 59 144 61h7q71 0 113 -40q44 -42 44 -104t-43.5 -108.5t-104.5 -46.5q-11 -22 -9.5 -57t32 -62.5t107.5 -27.5t150 60.5t203 238.5q-243 115 -244 288q0 247 227 316q35 11 80 11q160 0 290 -100q212 268 492 400q176 82 315 82l1 -1 q140 0 176.5 -36.5t35.5 -61.5l-7 -37q0 -11 -51.5 -86t-204.5 -365t-253.5 -496.5t-122.5 -231.5q-48 -56 -154 -100q-28 -12 -82 -12h-9q-60 1 -75 21q-20 32 -20 54t33 99l11 173q0 247 -42 367q-28 -43 -129 -239q30 -2 66.5 -7.5t36.5 -27.5t-46.5 -43.5t-111.5 -22.5 l-4 -7q-104 -208 -294 -310q-138 -72 -269 -73q-121 0 -245.5 83.5t-124.5 228zM584 714q0 -98 74 -143q30 -19 57 -38q42 -22 77 -29q69 104 228 343q-121 97 -245 97q-85 0 -138 -66t-53 -164zM1182 794q78 -177 95 -394q272 489 513 802q35 46 35 73.5t-31.5 27.5 t-68.5 -10q-160 -41 -303.5 -202t-239.5 -297z" />
<glyph unicode="B" horiz-adv-x="1728" d="M-6 320q0 147 116 228q46 34 102 34h2q56 0 97 -40q42 -40 42 -103.5t-52 -96.5q-95 -61 -95 -115q0 -22 17 -47q28 -43 86 -43l1 1q60 0 117 31q108 59 174 148.5t188 308t245 407t259 320.5q-52 11 -105 11q-125 0 -244 -52q-184 -78 -265.5 -168.5t-106.5 -212.5 q-6 -28 -5 -54q0 -119 111 -150q59 -17 60 -56q0 -56 -54 -74q-15 -6 -34 -6q-76 0 -131.5 76.5t-55.5 178.5q0 56 35 188.5t219 271.5q225 167 487 168q121 0 216 -15q138 76 187 90q27 8 44 8q13 0 21 -5q16 -11 15 -23q0 -22 -52 -55q-20 -13 -74 -49q128 -46 219 -178 q35 -50 36 -156q0 -200 -231 -316q63 -61 87.5 -116.5t24.5 -152.5t-71 -251q-50 -113 -180 -187.5t-243.5 -74.5t-178.5 46q-119 85 -145 193q-141 -175 -292 -230q-80 -30 -185.5 -30t-197 39t-137.5 104q-72 100 -73 205zM1004 230q58 -55 119 -55q74 0 152 80 q39 41 81.5 133.5t42.5 182.5q0 20 -3 40q-13 93 -58 116q0 2 -84 15q-52 0 -52 58t75 72q59 2 119 5q119 15 165 201q6 22 6 46q0 106 -82 158q-24 15 -56 30q-41 -41 -91.5 -105t-124 -287t-128.5 -340q94 44 130 44h4q41 0 41 -39t-65.5 -51t-159.5 -99q-57 -53 -57 -133 q0 -48 26 -72z" />
<glyph unicode="C" horiz-adv-x="1191" d="M-9 1013q0 39 9 82q20 91 132 161q105 65 204 64h14q106 -5 226 -67q281 252 505 252h14q333 -9 332 -265q1 -171 -127 -320q-126 -148 -318 -222q-169 -65 -359 -65q-26 0 -52 1q-6 -43 -6 -84q0 -227 158 -268q33 -9 65 -9q199 0 325 281q19 30 71 30q20 0 20 -55 t-57 -170.5t-158 -209.5q-158 -151 -350 -151q-102 0 -208 43q-238 97 -238 414q0 121 36 253q-238 100 -238 305zM85 1015q0 -127 171 -214q78 214 249 385q-95 39 -176 39q-126 0 -203 -95q-41 -50 -41 -115zM587 725q177 11 328.5 114t242 234.5t91.5 203.5q0 17 -6 28 q-43 74 -111 74q-125 0 -335 -266q61 -50 115 -104q10 -13 10 -26q0 -17 -19 -30q-13 -7 -29.5 -7t-33 23.5t-89.5 80.5q-39 -54 -84 -122t-80 -203z" />
<glyph unicode="D" horiz-adv-x="1778" d="M0 214q0 67 66.5 125.5t184.5 58.5v-4q184 -2 342 -93q30 39 65 125q-292 139 -292 457q0 50 12 142.5t96 214.5t234 210q131 77 291 77q23 1 46 -1q187 -12 328 -91q168 96 247 96q92 0 92 -33q0 -22 -117 -82q-33 -17 -92 -74q273 -241 272 -636q0 -388 -246 -594 q-162 -136 -378 -136t-413 98q-163 -122 -363 -122h-3q-203 0 -305 117q-67 78 -67 145zM136 221q0 -37 45.5 -72.5t107 -35.5t216.5 103q-100 59 -243 87q-9 1 -18 1q-34 0 -66 -20q-42 -26 -42 -63zM448 888v-7q0 -119 71 -219q64 -97 174 -151q80 203 222.5 432.5 t311.5 379.5q-123 72 -264 73q-206 0 -358.5 -150t-156.5 -358zM849 178q51 -13 116 -13q23 0 48 2q240 13 359 244q93 178 102 468v16q0 166 -99 296q-30 -39 -84.5 -108.5t-142 -309.5t-107.5 -288q82 30 148 93q89 84 90 206q0 35 46 36q22 0 26.5 -4.5t12.5 -46.5 q1 -7 2 -16q0 -42 -34 -120q-41 -94 -107 -150q-126 -106 -242 -124q-45 -82 -134 -181z" />
<glyph unicode="E" horiz-adv-x="1087" d="M-2 444q0 54 13 102q30 117 198.5 261.5t307.5 170.5q-95 78 -95 191q0 167 195 258q141 67 305 67q166 0 294 -82q115 -73 115 -155q0 -10 -2 -19q-26 -165 -266 -166q-52 0 -95.5 24.5t-49.5 46.5q-13 56 -13 43q0 19 24 33.5t47.5 14.5t75.5 -29t76 -29q50 0 80 67 q4 7 4 21q0 104 -147 104h-17q-134 -4 -189.5 -34t-100.5 -132q-17 -37 -16 -70q0 -78 81 -110q54 5 94 5q56 0 87 -10q104 -39 104 -90q0 -70 -91 -104q-48 -18 -93 -18q-16 1 -32 3q-60 8 -190 58q-85 -54 -148 -115q-180 -170 -180 -348v-13q0 -138 100 -206 q68 -45 148 -45h10q85 4 165 52q106 63 136 170q19 65 19 111q0 93 -90 119q-10 3 -22 3q-23 0 -52 -12q-65 -26 -91 -101q-43 -120 -73 -120h-1q-45 0 -45 49q0 8 1 16q8 66 51 139q71 117 193 126q12 1 23 1q154 0 213 -166q7 -20 8 -48q0 -158 -132 -322 q-162 -197 -418 -197t-402 164q-117 134 -117 321z" />
<glyph unicode="F" horiz-adv-x="1347" d="M0 140.5q0 147.5 128 240.5q33 24 76 24q169 0 170 -121q0 -58 -63 -126q-57 -61 -57 -101q0 -5 1 -9q15 -85 91 -85t176 80q141 113 234 345q31 77 51 123q-95 0 -175 115q-65 -24 -127 -24q-97 0 -165.5 84.5t-68.5 201.5q0 227 193.5 388t466.5 161q110 0 186 -23 q264 -78 380 -78t166 75q17 26 47 26q38 0 38 -55q0 -8 -1 -16q-11 -134 -90 -226t-199 -92t-333 86.5t-339 86.5q-167 0 -289 -103t-122 -237q0 -184 140 -184q43 0 80 22h2q0 80 24 141q32 82 106 82q7 0 15 -2q66 -20 66 -96q0 -22 -17.5 -70.5t-54.5 -89.5 q17 -24 65 -60h56q162 348 255.5 385t114.5 37q42 0 42 -35q0 -22 -52 -80q-33 -50 -51 -88t-36 -141q56 9 100 10q132 0 132 -82q0 -54 -28 -89q-26 -22 -50 -45.5t-48 -23.5t-23 12t1 28t-16 34.5t-31 18.5l-56 -4q-62 -476 -373 -675q-147 -94 -317.5 -94t-295.5 100.5 t-125 248z" />
<glyph unicode="G" horiz-adv-x="1254" d="M0 938.5q0 122.5 106 212t256 89.5q108 0 158 -19q288 258 556 258h4q138 -2 228.5 -72.5t97.5 -180.5v-32q0 -89 -30 -153q-36 -76 -110.5 -159t-238 -167.5t-274.5 -99.5q26 -74 91 -74q13 0 29 4q134 35 190 120q26 39 87 45h149q37 -7 41 -41.5t-1 -50.5t-55 -92 t-106 -214q-134 -327 -210 -394q-183 -163 -452 -163h-3q-193 0 -330.5 97.5t-137.5 234.5q0 93 17.5 138.5t65 100.5t125.5 55t128 -42t50 -111.5t-70 -112.5q-74 -32 -75 -102q0 -45 41 -75.5t100 -30.5h4q136 0 249 125q114 126 164 325q-72 -43 -185.5 -43t-216 89 t-132.5 221q-139 11 -224.5 101.5t-85.5 213zM97 941.5q0 -86.5 50 -147t121 -60.5q17 0 42 8q12 207 129 384q-58 17 -129.5 17t-142 -57.5t-70.5 -144zM708 806.5q0 -61.5 9 -87.5q188 14 322 221q156 243 156 324q0 52 -46 78q-13 7 -32 7q-65 0 -160 -89t-113.5 -120.5 t-35.5 -33.5q22 -22 71 -91q26 -46 26 -62q0 -35 -41 -35q-24 0 -56.5 32.5t-54.5 34.5q-45 -117 -45 -178.5z" />
<glyph unicode="H" horiz-adv-x="1687" d="M0 306q0 135 110 240q48 46 111 46q1 0 1 1q62 0 106 -42t44 -99q0 -95 -73 -124q-72 -29 -72 -94q0 -47 37 -77.5t90 -30.5t125 51q110 76 205 241q35 61 137 232q-56 -19 -99 -50.5t-122 -99.5q-9 -13 -31 -13q-41 0 -41 43l9 28q15 22 120 96.5t183 100.5l54 16 l121 199q-175 -97 -271 -97t-153.5 52.5t-57.5 124.5q0 147 100.5 251t241.5 104q50 0 51 -30q0 -13 -15 -29q-30 -26 -60 -53q-37 -39 -37 -89t31.5 -79t74.5 -29q136 0 336 181q132 119 195.5 119t63.5 -32q0 -13 -13 -28q-43 -35 -121 -121q-50 -72 -160 -375l100 6 q43 0 106 11q136 203 299 355q223 206 402 206q117 0 117 -95q0 -84 -106 -208q-154 -182 -403 -275q-84 -139 -176 -329t-92 -264q0 -30 19 -33q5 -1 10 -1q38 0 86 40q92 98 164 156q19 9 50 -6q17 -24 0 -50q-104 -153 -237 -257q-132 -104 -226 -104h-1q-93 0 -139 64 q-45 63 -46 144q0 83 31 158q103 257 183 393l-80 4q-12 1 -25 1q-36 0 -68 -5q-9 -26 -24 -82q-63 -227 -195 -407q-219 -299 -513 -299q-188 0 -322.5 104t-134.5 239zM1818 972q128 58 185 124q25 29 64 75q53 71 53 95q0 23 -35 24q-35 0 -117 -106t-150 -212z" />
<glyph unicode="I" horiz-adv-x="1094" d="M-4 292q0 84 49 176q22 43 74 77.5t113.5 34.5t98.5 -67q24 -41 24 -80q0 -98 -125 -151q-11 -6 -25 -30.5t-14 -59t31 -62.5t73 -28q126 0 361 286q32 39 56 71q-112 35 -183 119.5t-74 205.5v8q0 250 242 429q232 175 526 175q172 0 256 -45q54 -28 54 -56 q0 -17 -18 -29q-69 -50 -106 -80t-93 -93t-93 -158t-110 -320q7 4 70.5 49.5t82.5 45.5q30 0 29 -26q0 -28 -42 -65q-98 -85 -183 -128q-84 -229 -263 -398q-65 -61 -179 -105q-112 -44 -250 -44h-2q-137 0 -240 88q-139 115 -140 260zM652 769q-1 -10 0 -19 q0 -148 134 -185q45 67 110.5 184.5t110.5 179.5q169 236 311 342q-59 30 -151 30q-177 0 -327 -132q-175 -152 -188 -400z" />
<glyph unicode="J" horiz-adv-x="1137" d="M-6 149q0 78 49 169q22 41 73 70.5t103 29.5q80 0 121 -70q24 -43 24 -80q0 -84 -121 -130q-20 -7 -20 -54t40 -83t88 -36q147 0 324 278q52 82 89 160q-132 22 -222 116.5t-92 235.5v8q0 250 250 440q253 193 547 193q169 -1 260 -47q50 -24 50 -52q0 -17 -20 -31 q-119 -85 -225 -206t-204 -460q43 28 70.5 56t55.5 28t30 -24q0 -28 -43 -65q-45 -43 -147 -123q-58 -201 -109.5 -320t-125 -186.5t-192 -111.5t-240.5 -44q-167 0 -273 88q-139 115 -140 251zM665 769q-1 -11 -1 -22q0 -79 39 -135q44 -64 115 -88q48 115 94 231 q59 126 140 221q190 229 294 299q-58 35 -149 35q-177 0 -335 -137q-182 -158 -197 -404z" />
<glyph unicode="K" horiz-adv-x="1715" d="M-2 300.5q0 118.5 63.5 196t172.5 77.5q46 0 95.5 -32t49.5 -74t-23 -88.5t-57 -56.5q-74 -22 -74 -120q0 -89 106 -90q167 0 450 435q112 173 306 482q-212 -160 -351 -160q-65 0 -130 37q-91 52 -91 152q0 197 280 322q52 22 87.5 22t35.5 -28q0 -45 -76 -104 q-39 -30 -39 -71.5t29.5 -72.5t74.5 -36q11 -1 22 -1q104 0 229 111q56 54 189 171q34 29 69 29h2q43 0 43 -41q0 -30 -28 -65q-132 -171 -260 -550q407 464 645 606q134 80 260 80t126 -125q0 -72 -70 -139q-78 -76 -150 -76q-34 0 -66 17q-43 22 -89 22q-152 0 -281 -136 q-87 -93 -156 -180q116 34 163 34h3q46 -1 85 -37t39 -88q0 -35 -42 -172t-42 -153q0 -52 56 -52q48 0 80.5 38t70.5 40q39 2 39 -28q0 -29 -36 -63q-201 -201 -213 -212q-143 -121 -262 -121q-147 0 -147 145q0 97 66.5 252t66.5 202t-37 59q-15 6 -57.5 6t-83.5 -15 l-15 -51q-93 -308 -275 -477t-399.5 -169t-335.5 115t-118 233.5z" />
<glyph unicode="L" horiz-adv-x="1458" d="M0 159q0 85 62 142q60 56 179 56q125 0 313 -62q104 128 188 316q-310 80 -311 352q0 203 167 342q141 119 270.5 119t194.5 -36q26 -15 26 -35q0 -45 -52 -45q-13 0 -44.5 10.5t-104.5 10.5q-121 0 -236 -94.5t-123 -230.5q-1 -16 -1 -32q0 -114 51 -176q58 -72 205 -94 q19 41 45 95q113 227 267 389q212 223 428 223q130 0 165 -86q14 -33 14 -72q0 -30 -8 -63q-45 -188 -229 -348t-384 -223q-93 -247 -240 -414q121 -30 210 -30t139 11q145 32 253 180q28 37 56 37q39 0 39 -46q0 -20 -15 -41q-119 -169 -171 -223q-132 -139 -257 -139 q-162 0 -392 120q-175 -130 -349 -130t-264.5 66t-90.5 151zM119 186q0 -48 40 -79t90 -31q96 0 219 123q-145 72 -247 72t-102 -85zM1119 729q128 54 299 221.5t171 287.5q0 35 -21.5 62t-59.5 27t-64 -15q-65 -35 -111 -100q-97 -139 -214 -483z" />
<glyph unicode="M" horiz-adv-x="1754" d="M-6 43q0 52 37 128t90 178q-95 134 -95 322v13q4 196 105 367q124 208 267 302q113 71 221 71q176 0 176 -182q0 -67 -31 -188q-11 -43 -115 -273q345 434 574 434q104 0 104 -109q0 -65 -39 -163t-121 -259q316 370 526 370q125 0 125 -108q0 -56 -36 -139 q-112 -210 -256 -500q-20 -48 -21 -77q0 -28 19 -28q23 0 72 40q52 43 136 115q24 24 50 24t26 -17t-35 -57q-91 -106 -218.5 -206.5t-227.5 -100.5q-136 0 -136 139q0 58 24 112q192 424 194 491q0 26 -19 26q-26 0 -78 -45q-132 -113 -284 -325l-63 -127 q-58 -115 -80.5 -150t-70.5 -71q-94 -71 -181 -71l-1 1q-87 0 -87 50q0 26 50 136.5t290 560.5q56 103 56 147t-23 44q-59 0 -191.5 -163.5t-254.5 -349.5q-22 -50 -63 -134q35 0 76 17t52 17q35 0 35 -36q0 -24 -26 -39q-61 -35 -132 -35q-7 0 -22 1t-22 1 q-63 -113 -117 -152q-93 -65 -175.5 -65t-83.5 63zM114 692q-1 -16 -2 -30q0 -133 52 -223q269 532 303 615t35 121q0 66 -58 66h-2q-13 0 -29 -3l-12 -6q-95 -46 -188 -216t-99 -324z" />
<glyph unicode="N" horiz-adv-x="1263" d="M0 688q33 442 364 669q88 61 204 61h14q221 -6 221 -264q0 -71 -16 -116.5t-103 -240.5q154 173 302.5 280t243.5 107q152 0 153 -130q0 -48 -23 -101q-141 -282 -316 -646q-19 -44 -19 -73q0 -32 23 -31q24 0 70.5 39t121.5 111q19 19 53 20t34 -23t-32 -62 q-87 -102 -229.5 -210t-228.5 -108t-122 54q-37 55 -37 125q0 65 21 111q106 197 256 511q17 41 17 69q0 45 -36 45q-110 0 -412 -432q-28 -59 -76 -159q78 0 121 28q13 7 24 7q37 0 37 -39q0 -26 -26 -41q-59 -33 -134 -33l-59 3q-72 -136 -129 -174q-85 -61 -202 -62 q-71 0 -71 50q0 59 136 316q-146 139 -146 307q0 16 1 32zM94 672v-13q0 -131 90 -230q260 519 292.5 596t32.5 111q0 96 -93 96h-2q-26 0 -52 -11q-130 -83 -212 -283q-51 -126 -56 -266z" />
<glyph unicode="O" horiz-adv-x="1200" d="M2 381q0 368 276 682t655 390q20 4 39 4q67 0 67 -43q0 -37 -50 -61q-160 -80 -324 -257q-264 -286 -264 -620.5t251 -334.5q178 0 360.5 272.5t182.5 549.5q0 156 -115 156q-82 0 -181 -121q-121 -144 -121 -339q0 -198 17 -198l12 5q6 0 9.5 -23t-19 -53.5t-54 -30.5 t-55.5 48q-32 67 -32 171.5t44.5 235t132.5 242.5q135 172 310 172h2q123 0 180 -104q39 -72 39 -174.5t-85 -317.5q-113 -290 -290 -470q-236 -242 -547 -242q-175 0 -288 87q-152 119 -152 374z" />
<glyph unicode="P" horiz-adv-x="1551" d="M-7 243.5q0 145.5 83 221.5q66 58 137 58l1 -1q72 0 114 -41.5t42 -97t-58.5 -95t-64.5 -45.5q-39 -37 -39 -87q0 -85 117 -85q7 -1 14 -1q196 0 494 553q-43 80 -43 127t38 47t58 -59l4 -11q193 362 426 553q-113 93 -296 93q-225 0 -383 -152t-158 -374q0 -160 73 -234 q52 -39 104 -76q13 -15 13 -37q0 -59 -56 -60q-26 0 -54 21q-175 123 -175 370q0 249 198 443q197 194 514 194q199 0 344 -95q180 112 216.5 112t36.5 -33.5t-50 -57.5q-71 -33 -127 -75q108 -93 165 -221t57 -245q0 -184 -137 -320.5t-315 -136.5q-113 0 -219 41 q-100 -269 -298 -411q-167 -121 -351 -121t-304.5 96.5t-120.5 242zM1111 563l75 -7q119 0 200.5 123.5t81.5 268.5t-69 247q-139 -186 -288 -632z" />
<glyph unicode="Q" horiz-adv-x="1204" d="M-4 396q0 370 272.5 683t649.5 389q20 4 39 4q67 0 67 -43q0 -37 -50 -61q-165 -84 -331 -257q-271 -286 -271 -615q0 -223 119 -301q33 242 193 340q-50 87 -50 192q0 167 111 321q134 180 335 180q123 0 187 -104t64 -219t-83 -320.5t-228 -367.5q-177 -197 -399 -256 q41 -106 135 -154q63 -32 132 -32q113 0 152 87.5t97 87.5t58 -64.5t-92.5 -132.5t-214.5 -69q-121 0 -225 72t-150 185l-86 -6q-165 0 -282 97q-149 125 -149 364zM593 158h24q15 -2 20 -2q182 0 357 237t175 510q0 87 -42 144t-88 57q-91 0 -180 -71q-121 -97 -121 -271 q0 -128 56 -175q72 0 94 -11q58 -28 58 -76q0 -63 -93 -63q-48 0 -93 22q-74 -41 -106 -82q-55 -76 -61 -219z" />
<glyph unicode="R" horiz-adv-x="1691" d="M-13 307q0 145 84 219q65 58 136 58t113 -41t42 -96.5t-59.5 -96.5t-60.5 -43q-39 -37 -39 -88.5t42 -71.5q19 -7 73 -13q6 -1 13 -1q205 0 528 612q212 401 457 599q-74 20 -158 20q-238 0 -425 -147.5t-187 -328.5q0 -78 27 -107.5t76.5 -44.5t69 -33.5t19.5 -55.5 q-1 -61 -71 -61q-7 0 -15 1q-63 6 -131.5 80.5t-68.5 194.5q0 204 191 389q224 213 571 213h3q125 0 227 -27q145 96 188.5 96t43.5 -39q0 -32 -48 -54t-80 -41q154 -72 232 -213q58 -102 58 -192q0 -93 -62 -173q-63 -83 -132.5 -104.5t-125.5 -23.5q60 -48 65 -96 q6 -61 6 -105q0 -40 -5 -64q-4 -20 -4 -37q0 -26 10 -40q16 -24 49.5 -24t73.5 54q28 35 61.5 35t33.5 -22q0 -30 -48 -87q-95 -115 -218.5 -211t-218.5 -96q-145 0 -145 156q0 87 89 366q21 67 21 108q0 37 -17 52q-50 26 -50 61q0 52 72 65q117 20 168 51 q102 61 102 208.5t-138 229.5q-151 -171 -319 -697q-98 -305 -314 -479q-188 -153 -376 -153h-1q-186 0 -307 97t-121 242z" />
<glyph unicode="S" horiz-adv-x="1161" d="M0 294.5q0 114.5 58.5 197t149.5 89.5q11 1 22 1q75 0 119 -42q51 -49 51 -98q0 -46 -26 -76t-52 -63.5t-27 -72.5q0 -126 131 -126q17 0 35 2q184 20 247 128t63 457v52q-229 67 -331 225q-46 71 -46 128.5t65 57.5q41 0 60 -37q13 -37 26 -76q46 -134 236 -197 q37 273 195 422q137 130 338 143q11 1 23 1q94 0 166 -53q101 -71 101 -208q0 -135 -143 -261t-335 -165q2 -42 2 -81q0 -207 -50 -313q-173 -364 -626 -364q-249 0 -368 126q-84 89 -84 203.5zM1113 933l8 -112q156 35 247 151q71 91 70 165q0 162 -124 162q-59 0 -125 -78 q-77 -94 -77 -248q0 -20 1 -40z" />
<glyph unicode="T" horiz-adv-x="1148" d="M0 144q7 130 71 196.5t159 66.5q59 0 99.5 -38t40.5 -98.5t-80 -110.5q-56 -35 -56 -76t25 -76.5t92 -35.5t166.5 72.5t188.5 226.5q26 45 119 251t167 316q14 19 157 160q28 28 63 28q46 0 46 -41q0 -28 -30 -63q-58 -69 -89.5 -191t-69 -374.5t-223 -398.5t-388.5 -158 q-19 -1 -38 -1q-177 1 -296 103q-124 108 -124 229v13zM264 838q0 243 227 435q186 156 412 156q138 0 309 -59q172 -60 267 -60h2q93 0 114 43q26 58 63 58t37 -73q-1 -138 -107 -229t-207 -91h-1q-102 0 -317 116q-143 76 -288 76t-280.5 -95t-135.5 -281q0 -74 28 -128 q48 -91 174 -91q61 0 101 26q93 65 93 175q-1 41 -21 79q-12 22 -11 40q1 14 7 27q16 29 56.5 29t70.5 -54q15 -26 15 -67q0 -136 -97 -244.5t-227 -108.5q-98 0 -191 77.5t-93 243.5z" />
<glyph unicode="U" horiz-adv-x="1219" d="M0 836q9 214 151 384t345 176h12q88 0 157 -56q89 -69 90 -188q0 -72 -34 -158q-80 -203 -143 -349q48 30 89 76.5t72 82.5t56 36t25 -30.5t-19 -56.5q-113 -158 -273 -223q-80 -167 -80 -212t43 -45q32 0 70 34q102 89 221 228q76 151 199 404q46 97 83.5 136.5 t97.5 75.5q60 37 132 37h1q71 0 71 -52q0 -17 -7 -36q-119 -256 -337 -762q-17 -43 -17 -72.5t37 -29.5t110 78q73 77 105 77q33 0 33 -31q0 -30 -84 -121q-84 -92 -205.5 -182t-199.5 -90q-151 0 -151 163q0 78 39 184q-63 -67 -179 -167.5t-190.5 -145t-131 -44.5 t-105 39.5t-48.5 97.5t35 134l140 304q-210 85 -210 287v17zM89 832.5q0 -172.5 156 -228.5q72 152 190 414q30 65 30 114q0 91 -93 91q-87 0 -162 -84q-121 -134 -121 -306.5z" />
<glyph unicode="V" horiz-adv-x="938" d="M-13 1033q0 123 107 229t231 128q15 2 26 2q43 0 43 -26q0 -20 -24 -35q-93 -59 -93 -140q0 -30 17 -57q28 -46 94 -47q128 0 299.5 150t249.5 162q11 2 19 2q40 0 40 -41q0 -26 -35.5 -51t-68.5 -119q-27 -76 -27 -206q0 -30 2 -66q2 -51 2 -98q0 -116 -14 -207 q97 171 232 337q384 472 610 472q67 0 67 -62q0 -37 -29.5 -91.5t-91.5 -88.5q-32 -19 -121 -50q-362 -126 -732 -773q-214 -371 -383 -371q-9 0 -17 1q-61 7 -61 43q0 28 60.5 121.5t88 206t27.5 335.5t51 331q-152 -93 -277 -145q-28 -11 -90.5 -11t-132 42.5t-69.5 122.5 z" />
<glyph unicode="W" horiz-adv-x="1644" d="M-4 1059q0 121 106 227t231 130q15 4 28 4q43 0 42 -30q0 -20 -24 -35q-93 -59 -93 -138q0 -30 17 -57q28 -46 95 -47q128 0 286 138q121 104 162 133t83 36q10 2 18 2q45 0 45 -49q0 -30 -27 -48q-91 -64 -91 -299q0 -28 1 -58q2 -45 2 -148t-22 -236q41 43 225 310 q74 117 131.5 247.5t104.5 192.5q9 13 28 13q39 0 86 -54.5t47.5 -122.5t-27.5 -228t-28 -242.5t15 -112.5q65 173 251.5 448t348.5 411q43 35 72 35q54 0 54 -74.5t-95 -155.5q-212 -182 -362 -400q-115 -165 -212 -381q-71 -169 -143 -338q-35 -80 -92 -80t-103 60 q-78 100 -78 369q0 129 28 246q-46 -71 -125 -167.5t-91 -111.5q-143 -186 -286 -315q-136 -122 -198 -122h-6q-62 7 -62 41t60 126q60 94 87.5 205t27.5 334t50 333q-154 -97 -275 -147q-26 -11 -88.5 -11t-133 42.5t-70.5 124.5z" />
<glyph unicode="X" horiz-adv-x="1603" d="M2 154q0 126 80.5 196t173.5 70q59 0 93 -30.5t34 -88t-39 -97.5q-30 -20 -58 -40.5t-28 -68.5q0 -76 99.5 -76t229 110.5t337.5 389.5q-193 28 -311 124q-145 117 -145 318q0 258 231 366q80 37 131 37t79 -5q240 -54 310 -460q383 463 587 463q80 0 115.5 -33.5 t35.5 -72.5t-43 -96q-58 -82 -156 -82l-143 17q-67 0 -140.5 -64.5t-234.5 -270.5q0 -22 6.5 -69.5t6.5 -71.5q67 24 111 55q43 31 73 31l1 -1q30 0 30 -30.5t-50 -58.5t-158 -74q20 -217 45 -277t66 -60h1l81 34l88 82q32 30 55 29q26 0 26 -24.5t-23 -53t-159 -173.5 q-68 -74 -152 -122q-68 -39 -120 -39q-12 0 -23 2q-98 19 -136 89q-47 89 -69 353q-229 -281 -376.5 -394t-290.5 -113q-76 0 -139 31q-132 67 -132 249zM539 947.5q0 -126.5 101.5 -221t283.5 -122.5q-17 342 -26 400q-24 145 -110 178q-35 13 -73 13q-74 0 -125 -60.5 t-51 -187z" />
<glyph unicode="Y" horiz-adv-x="1260" d="M-4 91q0 121 68.5 217.5t171.5 96.5q162 0 162 -150q0 -102 -86 -121q-32 -7 -57 -39t-25 -69q0 -69 86 -108q48 -22 104 -22q173 0 309 163q80 95 154 337q22 74 56 165q-203 -182 -346 -182q-171 0 -171 156q0 58 57 182q-188 43 -187 229q0 258 280 418q78 44 185 44 h21q120 -5 175 -85q35 -50 36 -111q0 -28 -129 -329q6 0 15.5 9t27.5 19t39 11q30 0 20 -35.5t-59.5 -72.5t-97.5 -59q-37 -95 -37 -127t24 -31q24 0 70 24q85 45 156 141q67 106 136 210q191 281 355 346q45 19 85 19q1 0 2 -1q41 0 41 -32t-57 -92q-126 -132 -188 -234 q-102 -177 -152 -443q-61 -323 -262 -540.5t-512 -226.5h-27q-213 0 -335 107q-108 95 -108 216zM370 955q0 -125 149 -158q7 13 59 114q91 171 91 250q0 72 -72 72q-7 0 -15 -1q-56 -6 -112.5 -58t-78 -115t-21.5 -104z" />
<glyph unicode="Z" horiz-adv-x="1217" d="M-6 46q0 63 84 108q147 76 579 430t534 488q-11 -7 -31 -7h-1q-102 0 -248 176q-95 113 -229 114q-100 0 -154 -88.5t-54 -155.5q0 -126 171 -184q84 -28 84 -97q0 -9 -2 -20q-12 -80 -109 -80h-12q-78 4 -166 92q-81 80 -82 189q0 10 1 20q13 242 212 352q128 70 296 70 h5q134 0 364 -161q43 -30 87.5 -30t74.5 61q14 35 30 77q15 38 48 38h7q67 -6 67 -78q0 -41 -32 -87q-102 -152 -279 -329.5t-434 -408.5h2q83 0 124 -156q26 -100 121 -115q5 -1 10 -1q65 0 165 127q20 24 45 24t29 -21q1 -3 1 -6q0 -21 -25 -56q-98 -139 -355 -307 q-72 -46 -153 -46q-165 0 -198 156q-30 139 -84 139q-22 0 -82 -24q-117 -48 -245 -210q-45 -56 -110 -56q-56 0 -56 63z" />
<glyph unicode="a" horiz-adv-x="981" d="M0 359q0 11 32.5 40.5t70.5 63t133 145.5q58 82 102 124q134 121 296 121q102 0 163 -35q37 74 37 76q28 63 71 74q3 1 7 1q30 0 80 -54q56 -60 56 -102.5t-45.5 -131t-143.5 -274.5q-37 -69 -37.5 -109t12.5 -47q2 -1 4 -1q17 0 74 46q65 52 95 87t38.5 35t23 -18.5 t14.5 -33.5t-24 -40t-56.5 -60.5t-133.5 -121.5t-150.5 -117t-102 -31t-91 27t-38.5 69t9 75q-104 -87 -172.5 -126t-137.5 -39t-113.5 42.5t-44.5 109.5t35 140q-41 -4 -52 6t-11 59zM368 294q0 -51 33 -51q39 0 104.5 68t104.5 126q89 136 89 204q0 45 -37 45 q-50 0 -172 -170.5t-122 -221.5z" />
<glyph unicode="b" horiz-adv-x="888" d="M7 356q0 16 36 49q184 177 319 407q212 394 285 506q10 13 28 13q6 0 14 -2q54 -7 93.5 -69.5t39.5 -104.5q-1 -65 -331 -705q-91 -182 -95 -221q0 -78 72 -78q78 0 138 96l15 24q-32 50 -32 140.5t59.5 215t145.5 194.5q33 28 72 28t69 -27.5t30 -66.5 q0 -121 -33 -198.5t-55.5 -118.5t-79.5 -120q9 -15 23 -8q25 11 78 60.5t67 49.5t29 -12t15 -23q0 -45 -130 -153q-50 -41 -95 -41t-80 13q-188 -206 -345 -206q-112 0 -169 87q-43 63 -43 127.5t55.5 177t104.5 207.5q-82 -110 -186 -242q-46 -46 -65 -46t-34 15.5 t-15 31.5z" />
<glyph unicode="c" horiz-adv-x="739" d="M4 358.5q0 18.5 30.5 42.5t135.5 146t216 217t244 95q61 0 109.5 -20t61.5 -36q43 -50 43 -112q0 -61 -47.5 -122.5t-108.5 -61.5q-89 0 -90 84q0 28 17.5 59.5t64.5 38.5q-20 17 -44 17q-87 0 -205 -227q-74 -145 -74 -229t74 -86h5q50 0 122 42q76 44 138 111 q96 101 122 101q13 0 27.5 -12t14.5 -23q0 -39 -130 -162q-236 -223 -436 -223q-141 0 -207 138q-23 47 -23 93q0 36 14 72q11 30 39 54q-45 -48 -65.5 -48t-34 16.5t-13.5 35z" />
<glyph unicode="d" horiz-adv-x="957" d="M-24 330.5q0 20.5 37 43t137 150.5q254 325 454 325q76 0 136 -46q195 360 288 515q10 13 28 13q6 0 14 -2q52 -7 92 -69q40 -61 41 -103q0 -44 -181 -415q-78 -169 -189 -389q-17 -24 -17 -44q0 -33 39 -34q22 0 45.5 25t77.5 72q26 15 35 15t24 -11t15 -23 q0 -32 -126 -169q-169 -186 -342 -186q-100 0 -132 158q-162 -169 -270 -169q-39 0 -72 19q-78 43 -78 148q0 76 14.5 110.5t42.5 58.5q-46 -46 -65 -46t-33.5 16.5t-14.5 37zM362 314.5q0 -59.5 39 -59.5q59 0 163.5 157t104.5 225q0 43 -37 43q-52 0 -188 -191 q-82 -115 -82 -174.5z" />
<glyph unicode="e" horiz-adv-x="754" d="M0 344.5q0 19.5 28.5 40t132 143t211.5 202.5q152 115 271 116q78 0 127.5 -49.5t49.5 -108.5q0 -89 -112 -209q-154 -163 -355 -226q-1 -10 -1 -19q0 -83 75 -85h4q51 -1 124 43q76 46 139 112q93 97 113 97t35.5 -10.5t16.5 -22.5q0 -41 -130 -162q-240 -221 -439 -221 q-143 0 -206 136q-24 49 -24 88q0 9 1 17q7 44 14.5 67t37.5 47q-48 -48 -66.5 -48t-32.5 16.5t-14 36zM451 471q0 -31 29 -31t126 103q57 60 57 126v2q0 30 -22 30q-35 0 -126 -121q-64 -77 -64 -109z" />
<glyph unicode="f" horiz-adv-x="724" d="M-247 -470q0 24 33 67q126 152 335 457q-56 54 -56 124q0 39 20 65q58 74 114 75q28 0 56 -19q22 45 96 212q-52 -24 -124 -61q-52 -33 -89 -77t-47 -48q-39 -17 -56 0q-15 11 -15 29q0 94 393 306q115 281 254 466q180 240 377 240q175 0 175 -143q0 -132 -141 -297 q-92 -108 -389 -257q-133 -328 -198 -470q6 0 78 29t189 181q14 19 37 19q15 0 34 -8q9 -6 9 -19q0 -17 -15 -46q-7 -17 -260 -257q-71 -67 -165 -91q-186 -349 -337 -475q-69 -58 -188.5 -58t-119.5 56zM758 833q59 28 90 50t97 105.5t77 124.5t11 65q0 48 -33 49 q-38 0 -78.5 -55t-163.5 -339z" />
<glyph unicode="g" horiz-adv-x="971" d="M-145 -349q9 97 128 169q114 55 194 95t187 81q19 41 19 47q-93 -45 -191 -45q-160 0 -160 160q0 121 50 171q-33 -24 -62 -26q-28 19 -28 38q0 11 10 23q41 52 139 166q138 151 171 180q149 134 251 134q210 0 210 -65q76 191 130 191q33 0 76 -65q19 -26 39.5 -58.5 t14.5 -56.5q-87 -184 -297 -632q63 41 97 74q128 128 158.5 157t54.5 29q34 0 34 -35t-41 -80q-139 -154 -364 -275q-234 -505 -448 -558q-74 -18 -140 -18h-7q-112 0 -173 51q-53 44 -53 124q0 12 1 24zM65 -392q0 -41 33 -41q50 0 103 91t109 212q-167 -69 -219 -169 q-26 -52 -26 -93zM362 295q0 -17 21.5 -25t36.5 -8q78 0 172 168t94 220q0 20 -19 28q-9 6 -22 6q-69 0 -175.5 -173t-107.5 -216z" />
<glyph unicode="h" horiz-adv-x="1074" d="M18 330q-5 13 -5 23q1 13 7 23q12 18 197 219q43 46 139.5 190t156.5 252q43 87 85 173q71 134 112 134q67 0 124 -192q2 -6 2 -15q0 -41 -91 -212.5t-132 -264.5q290 186 407 186q39 0 65 -28t26 -62.5t-12 -72.5t-175 -334q-13 -24 -13 -42q0 -30 36 -30t57 17 q59 48 98 96.5t61 48.5q37 0 38 -36q0 -13 -15 -33.5t-17 -25.5q-4 -19 -190 -184q-67 -59 -154 -112.5t-130 -53.5q-9 0 -17 4q-107 58 -107 126q0 47 48 156.5t48 150.5t-17 41q-37 0 -169 -173t-219 -240q-6 -4 -60.5 -30.5t-67.5 -26.5q-43 0 -67 67q-1 1 -1 4 q0 37 140 293q148 272 168 314q-35 -59 -150.5 -199.5t-134 -159t-39.5 -18.5t-32 27z" />
<glyph unicode="i" d="M13 381q37 43 154 190q59 87 124.5 179t109 103t56.5 11t32 -22q82 -97 82 -143.5t-74 -208.5q-73 -159 -73 -205q0 -21 18 -21t99 85.5t117.5 85.5t36.5 -35q0 -82 -230 -264q-175 -139 -259 -140q-56 0 -87.5 40t-31.5 91.5t27.5 117t136.5 290.5q-74 -93 -169 -200 q-17 -13 -50 -15q-27 17 -27 38q0 11 8 23zM489 1089q0 80 57.5 155t142.5 75h4q57 0 95 -27q39 -28 39 -105.5t-61.5 -147t-148.5 -69.5q-128 0 -128 119z" />
<glyph unicode="j" horiz-adv-x="574" d="M-535 -361q0 95 98 171q52 39 179.5 99.5t248.5 105.5q165 316 278 544q-139 -197 -176 -224q-19 -15 -50 -15q-29 17 -29 38q0 11 8 23q37 43 155 190q61 87 125 179t107.5 103t58 10t30.5 -21q82 -97 82 -145.5t-68.5 -199t-149.5 -320.5q6 4 111 100t138 130 q33 28 56 28q37 0 37 -35q0 -19 -21 -56t-153 -160t-238 -169q-93 -236 -350 -493q-76 -76 -239.5 -76t-202.5 73q-35 63 -35 120zM-322 -368q0 -50 53 -50q35 0 72 65q37 74 58.5 116.5t34.5 72.5q-74 -35 -139 -78q-26 -19 -52 -53q-26 -41 -27 -73zM515 1089 q0 78 57.5 154t142.5 76h4q57 0 95 -27q39 -28 39 -105.5t-60.5 -147t-149.5 -69.5q-128 0 -128 119z" />
<glyph unicode="k" horiz-adv-x="983" d="M-4 336q0 9 10.5 30t121 138.5t237.5 297.5t183 315q87 214 141.5 214t118.5 -119q22 -41 22 -74q0 -25 -12 -45q-9 -19 -275 -576q324 330 437 330q5 0 9 -1q107 -15 107 -94q0 -44 -33 -105q-46 -84 -113 -84q-20 0 -67 17q-17 9 -35.5 19.5t-29.5 6.5 q-43 -19 -119 -87q54 9 95.5 9t48.5 -25t1 -57t-13 -82q-2 -15 -2 -27q-1 -29 11 -39q16 -14 33 -14q43 0 93 66t77 66h1q13 0 25.5 -15.5t12.5 -31.5t-33.5 -52t-112.5 -122q-181 -197 -341 -197q-91 0 -103 91q-1 5 -1 10q0 32 19 100q22 80 22 113t-15 34 q-15 0 -62.5 -58t-129.5 -156t-111.5 -118t-79.5 -20q-87 0 -88 60q0 71 279 570q-247 -329 -288 -329t-41 41z" />
<glyph unicode="l" horiz-adv-x="590" d="M4 340q0 13 3 21q46 48 160 174q52 63 174 244.5t163 257.5q158 302 192 302q1 0 3 -1q28 -11 65 -48t53 -78t16 -64.5t-23 -69.5q-165 -333 -351 -717q-20 -52 -20 -73q0 -30 31.5 -23t100 76.5t92.5 69.5q41 0 41 -34q0 -17 -9 -28q-56 -59 -111 -120 q-112 -115 -166 -149q-117 -76 -203 -76t-128 80q-7 13 -7 35q0 123 201 461q-198 -285 -248 -285q-9 0 -19 16t-10 29z" />
<glyph unicode="m" horiz-adv-x="1460" d="M2 331q0 13 11 28q98 117 243 303q129 201 180 201q3 0 6 -1q33 -7 68 -42q53 -54 53 -128q0 -33 -11 -71q-9 -33 -69 -121q222 215 314 271l86 52t83.5 26t87.5 -63q7 -11 7 -28q0 -46 -76 -187q91 82 243 200l86 52t83.5 26t87.5 -63q7 -11 7 -28q0 -45 -105 -245.5 t-105 -244.5q0 -17 13 -17q39 0 149 89q4 4 36.5 41.5t46 37t26 -14.5t12.5 -29t-50.5 -70.5t-169.5 -158t-165 -121.5t-97 -19q-108 0 -120 83q-1 6 -1 14q0 65 71 215q50 97 101 193q7 17 7 27t-19.5 10t-58.5 -39t-148.5 -166.5t-154.5 -190.5t-111.5 -110.5 t-116.5 -47.5q-67 0 -67 69q0 32 37 93q65 107 200 355q6 15 6 26t-18.5 11t-57.5 -39t-148.5 -166.5t-154.5 -190.5t-111.5 -110.5t-117.5 -47.5q-67 0 -67 69q0 32 38 94t56 99.5t154 301.5q-93 -106 -218 -242q-15 -13 -31 -13q-30 0 -30 28z" />
<glyph unicode="n" horiz-adv-x="1029" d="M-4 310q0 15 19 45q97 119 240 307q131 201 180 201q3 0 5 -1q33 -7 68 -42q53 -54 53 -128q0 -33 -11 -71q-9 -33 -69 -121q224 217 316 271q41 26 84 52t83.5 26t87.5 -63q7 -11 7 -28q0 -45 -105 -245.5t-105 -241.5q0 -19 15 -18q48 0 149 87q2 2 34.5 41t48.5 39 q26 0 26 -36t-45.5 -86.5t-164 -152t-164.5 -120.5t-96 -19q-108 0 -120 82q-1 5 -1 12q0 93 170 411q7 13 7 22t-22 9l-1 1q-22 -1 -58 -37t-145.5 -163.5t-154.5 -190.5t-111.5 -110.5t-117.5 -47.5q-66 0 -66 67q0 34 37.5 96t55.5 99.5t148 295.5q-217 -257 -254 -257 q-22 0 -23 15z" />
<glyph unicode="o" horiz-adv-x="806" d="M-7 346q0 19 14 35q91 115 197 227q247 267 428 267q126 0 169 -128q9 -28 9 -65q0 -125 -93 -308q22 -13 23 -52q63 15 100 79q28 28 57 18t29 -29.5t-30 -53.5q-95 -126 -220 -135q-9 -1 -17 -1q-30 0 -51 12q-164 -216 -365 -216q-95 0 -150.5 61.5t-55.5 165.5 q0 45 11 93q-7 -7 -18 -7q-37 0 -37 37zM370 184q13 -6 26 -6q59 0 106 106q-24 43 -24 78.5t9 57.5q19 48 84 48q17 0 37 -3q72 139 72 199.5t-50 60.5q-74 0 -201 -233q-97 -174 -97 -232.5t38 -75.5z" />
<glyph unicode="p" horiz-adv-x="1014" d="M-355 -459.5q0 30.5 52 72.5q108 89 377 547l285 481q-87 -108 -255 -284q-33 -28 -60.5 -28t-27 31t50.5 73.5t198 230t193.5 254.5t73 67t59.5 -28q78 -69 78 -130t-84 -217q102 98 251 193q67 43 140 43q91 0 91 -82q0 -52 -41 -132q-98 -193 -145 -307q-9 -22 -9 -36 q0 -25 27 -25q22 0 52 27t101 101q20 22 52 22t32 -25t-30 -58q-165 -188 -320 -275q-71 -41 -145 -41q-130 0 -130 117q0 95 76 206q45 54 85 105t40 84.5t-23 33.5q-33 0 -99 -69.5t-170 -203.5q-26 -48 -150.5 -287t-165.5 -302q-110 -165 -236 -204q-71 -21 -121.5 -21 t-79.5 21q-22 15 -22 45.5z" />
<glyph unicode="q" horiz-adv-x="949" d="M-7 340q0 28 39 67q58 80 206 249q123 123 149 141q97 74 206 75q158 0 176 -99q13 46 80 180q24 38 58.5 38t92.5 -88q30 -46 30 -81.5t-22.5 -85.5t-102.5 -204.5t-206 -436.5q102 106 266 286q32 39 65 41q35 2 35 -26q0 -27 -30 -60q-104 -112 -239.5 -259.5 t-228 -288.5t-125.5 -182q-95 -112 -195 -138q-58 -16 -97 -16h-5q-72 0 -73 52q0 26 31 81.5t174 284.5q93 139 191 307q-184 -164 -310 -164q-37 0 -67 17q-69 41 -69 125t36 167q-22 -9 -39 -10q-26 0 -26 28zM344 303q0 -45 56.5 -45t188.5 182q97 132 97 201 q0 22 -14 44.5t-35 22.5q-67 0 -189 -191q-104 -160 -104 -214z" />
<glyph unicode="r" horiz-adv-x="702" d="M7 368q169 188 255 333q-43 35 -43 82.5t28 102.5q46 89 136 90q33 0 56.5 -18.5t23.5 -58.5q0 -39 -23 -85q23 -14 56 -14q36 0 82 16q90 30 123 30q63 0 63 -73q0 -40 -56 -143q-61 -130 -137 -301q-11 -30 -11 -48.5t11 -25.5q32 0 55 31q45 41 112 108q19 26 44 26 t36 -13t11 -25t-34 -53q-178 -216 -366 -307q-52 -26 -111.5 -26t-101.5 50q-37 45 -37 93q0 6 1 12q13 117 190 338q69 85 69 132.5t-80 47.5q-201 -262 -287 -346q-19 -19 -38 -19q-14 0 -27 10q-14 7 -14 22q0 19 14 32z" />
<glyph unicode="s" horiz-adv-x="687" d="M11 372q87 102 292 332q84 89 182.5 145t168.5 56q125 0 125 -106q0 -39 -32 -68.5t-54 -29.5t-31 1q-24 6 -41 6q-23 0 -35 -12q-20 -20 -21 -46q0 -26 22 -102q63 -142 63 -206q37 17 65 48.5t58 31.5q39 0 39 -37q0 -17 -33 -56q-58 -69 -149 -84q-50 -139 -160 -202 q-74 -43 -152 -43q-177 0 -227 91q-32 56 -32 112q0 93 66 124.5t114.5 32t145.5 -13.5q7 34 7 105q0 23 -1 51v32q0 87 14 135q-54 -32 -186 -183.5t-141 -160.5q-20 -20 -40 -20l-26 9q-17 11 -17 26q0 14 16 32zM186 212q0 -29 35 -48q13 -6 26 -6q62 0 110 98 q-62 8 -99.5 8t-48.5 -8q-23 -15 -23 -44z" />
<glyph unicode="t" horiz-adv-x="650" d="M11 314q-16 10 -16.5 24.5t16.5 33.5q131 145 322 370q-59 0 -60 46q0 15 9 33q20 35 144 36q22 26 34 44.5t137 224.5q20 32 43.5 32t52.5 -32q24 -28 48.5 -60.5t24.5 -75.5t-13 -69.5t-34 -67.5q156 0 156 -32q0 -9 -9 -24l-33 -48q-13 -11 -54 -11l-119 4 q-71 -125 -89 -153q0 4 22 41l-77 -147q-77 -147 -85 -169q-11 -28 -11 -47q0 -24 17 -33q9 -6 37 2.5t71 44t135 115.5q22 24 52 24q39 0 39 -35q0 -17 -33 -56q-74 -89 -241.5 -209t-248 -120t-123.5 50q-37 43 -37 87q0 7 1 15q17 128 171 393q-72 -93 -182 -220 q-21 -21 -40 -21q-14 0 -27 10z" />
<glyph unicode="u" horiz-adv-x="1055" d="M9 346q0 32 43 76q152 182 364 427q22 24 43 24q37 0 97 -98q33 -54 33 -78t-23 -77t-66 -138.5t-43 -104.5q0 -26 29 -17q74 25 341 380q24 33 105 71q74 35 124 35h10q53 -4 53 -43q0 -38 -43 -128q-72 -139 -162 -322q-10 -28 -10 -47q0 -33 33 -33q24 0 63 37.5 t72 73.5t64 36q39 0 39 -35q0 -17 -34 -56q-186 -217 -370 -307q-45 -22 -93 -22t-82.5 43.5t-34.5 85.5t10 66q35 80 105 227q-375 -422 -510 -422h-1q-89 2 -89 94.5t59 206.5t146 253q-206 -247 -233 -247q-39 0 -39 39z" />
<glyph unicode="v" horiz-adv-x="912" d="M15 341.5q0 34.5 44 80.5q126 147 318 353q72 65 146 65t100 -41q15 -22 15 -49q-2 -59 -240 -505q-9 -19 -10 -39q0 -56 59.5 -56t167.5 106q-28 46 -28 129q0 15 1 31q6 106 104 266t196 160q45 0 72 -39t27 -89q-17 -169 -177 -392q4 -15 39 -15q22 0 80 76 q30 39 60 39q39 0 39 -37q0 -17 -47.5 -72.5t-71.5 -74.5q-71 -58 -156 -58q-32 0 -64 11q-232 -191 -399 -191q-78 0 -127.5 52t-49.5 117t28 117q58 106 145 268q-206 -247 -232 -247q-39 0 -39 34.5z" />
<glyph unicode="w" horiz-adv-x="1191" d="M15 342q0 35 44 80q126 147 318 353q72 65 146 65t100 -41q15 -22 15 -47q-2 -61 -216 -453q-15 -26 -15 -65t39 -39q32 0 86 41l9 56q30 156 130 288q32 44 87 44h2q76 0 76 -83q0 -65 -59.5 -158t-124.5 -154q2 -95 77 -95q66 0 159 130q-22 47 -22 126q0 15 1 31 q5 101 102.5 261t197.5 160q46 0 74 -39q24 -33 24 -73q0 -7 -1 -15q-17 -171 -175 -393q4 -15 39 -15q22 0 80 78q28 37 59 37q39 0 39 -37q0 -17 -44.5 -71t-73.5 -76q-72 -58 -158 -58q-37 0 -65 11q-59 -78 -141 -139t-146 -61q-112 0 -139 135q-164 -126 -252 -126 t-132.5 45.5t-44.5 109t31 120.5q59 106 145 279q-206 -247 -232 -247q-39 0 -39 35z" />
<glyph unicode="x" horiz-adv-x="892" d="M-7 331q0 22 24 48q151 171 383 428q51 55 107 55h2q89 0 101 -113q7 -76 24 -193q74 52 92.5 85.5t31.5 118.5q24 154 138 154q41 0 71 -30.5t29 -86.5q0 -128 -137 -217q-65 -37 -214 -123l11 -93q11 -89 26 -111.5t58.5 -22.5t183.5 164q24 30 48 30q32 0 32 -36 q0 -19 -17 -39q-121 -151 -307 -297q-56 -45 -113 -45q-97 0 -119 101q-26 108 -43 208q-61 -37 -85 -73.5t-26 -108.5q-6 -212 -134 -212q-99 0 -99 111q0 110 153 253q61 58 176 125l-5 80q-6 76 -40.5 76t-75.5 -43q-78 -84 -195 -208q-17 -19 -42 -19q-39 0 -39 34z" />
<glyph unicode="y" horiz-adv-x="864" d="M-392 -372q0 152 243 270q136 65 327 111q26 95 49.5 218t23.5 158t-15 54.5t-24 19.5q-20 0 -115 -110q-26 -30 -48 -30q-4 0 -8 1q-24 4 -24 32.5t39 67.5q67 67 284 353q52 61 100 61q85 0 86 -159q0 -80 -25 -253t-81 -361q24 4 56 13q76 110 128 255t52 218t-11 129 t-11 66q0 71 39 141q30 50 84.5 50t93.5 -58q28 -39 28 -131.5t-77 -261t-202 -354.5q169 104 272 246q22 30 54 30h2q33 -1 33 -25t-24 -56q-76 -104 -259 -236q-91 -65 -173 -89q-93 -121 -180 -206q-288 -281 -453 -324q-41 -11 -80 -11q-121 0 -169 106q-15 32 -15 65z M-258 -375q0 -78 98 -78q186 24 298 323q5 13 16 54q-325 -82 -394 -227q-19 -41 -18 -72z" />
<glyph unicode="z" horiz-adv-x="780" d="M11 339.5q0 30.5 30.5 65t191.5 217.5t180 199q56 48 117 48q47 0 98 -29q71 -43 76 -45q30 -7 43 -7q37 0 99 50q19 15 39 15q41 0 41 -35q0 -26 -30 -49q-128 -98 -251 -209.5t-142.5 -139.5t-19.5 -46.5t13 -31.5q26 -6 86 -28q7 -4 35.5 -22.5t54 -16.5t125.5 106 q26 28 52 28t32 -19t-15 -46q-98 -130 -284 -281q-69 -54 -116.5 -54t-96.5 31.5t-73.5 31.5t-69 -31.5t-68.5 -31.5q-42 0 -42 60v13q4 72 157 247t285 286h-9q-51 1 -76 23q-27 24 -58.5 24t-70.5 -43q-97 -104 -259 -281q-28 -30 -48 -29q-26 0 -26 30.5z" />
<glyph unicode="&#xad;" d="M128 563q0 32 27.5 74.5t76.5 42.5h339q72 0 72 -78q0 -30 -30.5 -70t-75.5 -40h-338q-71 0 -71 71z" />
<glyph unicode="&#xb7;" horiz-adv-x="446" d="M80 591q0 56 39 119q54 85 143 85q63 0 96 -41q74 -91 -18 -209q-59 -76 -136 -77q-125 0 -124 123z" />
<glyph unicode="&#xc5;" horiz-adv-x="1399" d="M-6 349q0 364 394 768q357 366 800 366q39 0 78 -4q139 -11 237.5 -116t96.5 -241.5t-94 -264t-261 -177.5q-177 -329 -176 -392q0 -39 50 -39q19 0 44 24t52 52q91 85 108 86q32 0 32 -34q0 -58 -229 -252q-145 -123 -282 -123q-48 0 -65 26t-36 54q-22 41 -22 91 t30 122q-95 -115 -238 -213.5t-264 -98.5t-193 127q-61 106 -62 239zM394 420q0 -52 35.5 -89t85.5 -37q108 0 266 167q46 50 159 199q-13 6 -20 5q-234 59 -234 127q0 9 3 20q9 20 28 20.5t123 -37t171 -37.5q46 63 89 112.5t104.5 90.5t103.5 41q54 0 54 -58 q0 -39 -43 -121q87 54 138.5 137t49.5 170t-72.5 161.5t-168.5 74.5q-175 0 -329 -84.5t-310.5 -290t-204.5 -357.5q-28 -93 -28 -214z" />
<glyph unicode="&#x2000;" horiz-adv-x="778" />
<glyph unicode="&#x2001;" horiz-adv-x="1557" />
<glyph unicode="&#x2002;" horiz-adv-x="778" />
<glyph unicode="&#x2003;" horiz-adv-x="1557" />
<glyph unicode="&#x2004;" horiz-adv-x="519" />
<glyph unicode="&#x2005;" horiz-adv-x="389" />
<glyph unicode="&#x2006;" horiz-adv-x="259" />
<glyph unicode="&#x2007;" horiz-adv-x="259" />
<glyph unicode="&#x2008;" horiz-adv-x="194" />
<glyph unicode="&#x2009;" horiz-adv-x="311" />
<glyph unicode="&#x200a;" horiz-adv-x="86" />
<glyph unicode="&#x2010;" d="M128 563q0 32 27.5 74.5t76.5 42.5h339q72 0 72 -78q0 -30 -30.5 -70t-75.5 -40h-338q-71 0 -71 71z" />
<glyph unicode="&#x2011;" d="M128 563q0 32 27.5 74.5t76.5 42.5h339q72 0 72 -78q0 -30 -30.5 -70t-75.5 -40h-338q-71 0 -71 71z" />
<glyph unicode="&#x2012;" d="M128 563q0 32 27.5 74.5t76.5 42.5h339q72 0 72 -78q0 -30 -30.5 -70t-75.5 -40h-338q-71 0 -71 71z" />
<glyph unicode="&#x2013;" horiz-adv-x="1081" d="M128 563q0 32 54.5 74.5t152.5 42.5h674q143 0 143 -78q0 -30 -60.5 -70t-150.5 -40h-672q-141 0 -141 71z" />
<glyph unicode="&#x2014;" horiz-adv-x="2105" d="M128 563q0 32 109.5 74.5t304.5 42.5h1348q286 0 286 -78q0 -30 -121.5 -70t-300.5 -40h-1344q-282 0 -282 71z" />
<glyph unicode="&#x2018;" horiz-adv-x="340" d="M-6 1048q0 97 78 203q56 74 138.5 122.5t127.5 48.5t45 -37q0 -19 -17.5 -30t-86.5 -54q-33 -22 -33.5 -48t26.5 -67t27 -96t-44.5 -112.5t-115 -57.5t-107.5 35.5t-38 92.5z" />
<glyph unicode="&#x2019;" horiz-adv-x="412" d="M0 955q0 17 13 26q24 13 91 56q33 22 33.5 48t-26.5 67t-27 96t44.5 112.5t115 57.5t107.5 -35.5t37 -92.5q0 -97 -78 -203q-56 -74 -138.5 -122.5t-126.5 -48.5q-45 0 -45 39z" />
<glyph unicode="&#x201c;" horiz-adv-x="735" d="M-6 1048q0 97 78 203q56 74 138.5 122.5t127.5 48.5t45 -37q0 -19 -17.5 -30t-86.5 -54q-33 -22 -33.5 -48t26.5 -67t27 -96t-44.5 -112.5t-115 -57.5t-107.5 35.5t-38 92.5zM340 1048q0 97 78 203q56 74 138.5 122.5t127.5 48.5t45 -37q0 -19 -18 -30t-87 -54 q-33 -22 -33 -48t27 -67t27 -96t-44.5 -112.5t-115 -57.5t-107.5 35.5t-38 92.5z" />
<glyph unicode="&#x201d;" horiz-adv-x="735" d="M0 955q0 17 13 26q24 13 91 56q33 22 33.5 48t-26.5 67t-27 96t44.5 112.5t115 57.5t107.5 -35.5t37 -92.5q0 -97 -78 -203q-56 -74 -138.5 -122.5t-126.5 -48.5q-45 0 -45 39zM346 955q0 17 13 26q24 13 91 56q33 22 33 48t-27 67t-27 96t45 112.5t115.5 57.5 t107.5 -35.5t37 -92.5q0 -97 -78 -203q-56 -74 -138.5 -122.5t-127.5 -48.5t-44 39z" />
<glyph unicode="&#x2022;" horiz-adv-x="468" d="M33 580q0 72 52 156q69 110 184 110q84 0 126 -53t42 -121t-71.5 -159.5t-170.5 -92.5q-162 0 -162 160z" />
<glyph unicode="&#x202f;" horiz-adv-x="311" />
<glyph unicode="&#x205f;" horiz-adv-x="389" />
<glyph unicode="&#xe000;" horiz-adv-x="910" d="M0 0v911h911v-911h-911z" />
</font>
</defs>
</svg>
